العودة   منتديات ساحرة الأجفان > ..:: مملكة ساحرة الأجفان للأفلام والمسلسلات ::.. > قسم أفلام الأنمي والكرتون , احدث افلام الانمي 2017 , اقوى افلام الانمي 2017

الملاحظات

قسم أفلام الأنمي والكرتون , احدث افلام الانمي 2017 , اقوى افلام الانمي 2017 مملكة انمي - تحميل افلام انمي - افلام كرتون - صور انمي - افلام الأنمي مترجمة - قسم آفلام الآنمي و الكارتون 2017

فلم الانمي How To train your Dragon,تحميل فلم الانمي How To train your Dragon مترجم بنسخة dvd

قسم أفلام الأنمي والكرتون , احدث افلام الانمي 2017 , اقوى افلام الانمي 2017

إضافة رد
 
أدوات الموضوع إبحث في الموضوع انواع عرض الموضوع
قديم 12-25-2013, 05:56 AM   المشاركة رقم: 1
angle girl

البيانات
angle girl متواجد حالياً
التسجيل: Apr 2012
العضوية: 1045
الدولة: gين مآتروح تلقآنيـے
أخر تواجد [+]
عدد النقاط: 715
angle girl is a splendid one to beholdangle girl is a splendid one to beholdangle girl is a splendid one to beholdangle girl is a splendid one to beholdangle girl is a splendid one to beholdangle girl is a splendid one to beholdangle girl is a splendid one to behold


المنتدى : قسم أفلام الأنمي والكرتون , احدث افلام الانمي 2017 , اقوى افلام الانمي 2017
افتراضي فلم الانمي How To train your Dragon,تحميل فلم الانمي How To train your Dragon مترجم بنسخة dvd

فلم الانمي How To train your Dragon,تحميل فلم الانمي How To train your Dragon مترجم بنسخة dvd
How To train your Dragon
عزيزى العضو \ الزائر لايمكنك مشاهده الروابط الا بعد الرد
Info

:
Format : Matroska
Format version : Version 2
File size : 3.86 GiB
Duration : 1h 37mn
Overall bit rate : 5 641 Kbps
Encoded date : UTC 2012-10-18 16:14:21
Writing application : mkvmerge v5.8.0 ('No Sleep / Pillow') built on Sep 2 2012 15:37:04
Writing library : libebml v1.2.3 + libmatroska v1.3.0

Video
ID : 1
Format : AVC
Format/Info : Advanced Video Codec
Format profile : [email protected]
Format settings, CABAC : Yes
Format settings, ReFrames : 4 frames

Muxing mode : Header stripping
Codec ID : V_MPEG4/ISO/AVC
Duration : 1h 37mn
Bit rate : 5 000 Kbps
Width : 1 920 pixels
Height : 816 pixels
Display aspect ratio : 2.35:1
Frame rate mode : Constant
Frame rate : 23.976 fps
Color space : YUV
Chroma subsampling : 4عزيزى العضو \ الزائر لايمكنك مشاهده الروابط الا بعد الرد0
Bit depth : 8 bits
Scan type : Progressive
Bits/(Pixel*Frame) : 0.133
Stream size : 3.34 GiB (87%)
Title : How to train your dragon 2010 Arabic 1080p - alrmothe
Writing library : x264 core 88
Language : Arabic
Default : Yes
Forced : No
Color primaries : BT.709
Transfer characteristics : BT.709
Matrix coefficients : BT.709

Audio
ID : 2
Format : AC-3
Format/Info : Audio Coding 3
Mode extension : CM (complete main)
Format settings, Endianness : Big
Muxing mode : Header stripping
Codec ID : A_AC3
Duration : 1h 37mn
Bit rate mode : Constant
Bit rate : 640 Kbps
Channel(s) : 6 channels
Channel positions : Front: L C R, Side: L R, LFE
Sampling rate : 48.0 KHz
Bit depth : 16 bits
Compression mode : Lossy
Stream size : 448 MiB (11%)
Title : How to train your dragon 2010 Arabic 1080p - alrmothe
Language : Arabic
Default : Yes
Forced : No

Screen
عزيزى العضو \ الزائر لايمكنك مشاهده الروابط الا بعد الرد
عزيزى العضو \ الزائر لايمكنك مشاهده الروابط الا بعد الرد
عزيزى العضو \ الزائر لايمكنك مشاهده الروابط الا بعد الرد
عزيزى العضو \ الزائر لايمكنك مشاهده الروابط الا بعد الرد
عزيزى العضو \ الزائر لايمكنك مشاهده الروابط الا بعد الرد
عزيزى العضو \ الزائر لايمكنك مشاهده الروابط الا بعد الرد


download torrent

عزيزى العضو \ الزائر لايمكنك مشاهده الروابط الا بعد الرد
















من مواضيع angle girl
عرض البوم صور angle girl رد مع اقتباس
قديم 12-25-2013, 06:39 AM   المشاركة رقم: 2
ساحرة الاجفان

البيانات
ساحرة الاجفان غير متواجد حالياً
التسجيل: Nov 2011
العضوية: 5
أخر تواجد [+]
عدد النقاط: 1140
ساحرة الاجفان has much to be proud ofساحرة الاجفان has much to be proud ofساحرة الاجفان has much to be proud ofساحرة الاجفان has much to be proud ofساحرة الاجفان has much to be proud ofساحرة الاجفان has much to be proud ofساحرة الاجفان has much to be proud ofساحرة الاجفان has much to be proud ofساحرة الاجفان has much to be proud of


كاتب الموضوع : angle girl المنتدى : قسم أفلام الأنمي والكرتون , احدث افلام الانمي 2017 , اقوى افلام الانمي 2017
افتراضي رد: فلم الانمي How To train your Dragon,تحميل فلم الانمي How To train your Dragon مترجم بنسخة dvd

مدائن.. من.. الشكر ..وجنآئن.. الجوري

لهـذآ..الطرح..الأكثر..من..رآآئع
والع ـطآء..الرآقي
دآآمت..إطلالتكمـ..في..سسمآآءنآآ
ودي..و..وردي
لكـم
















من مواضيع ساحرة الاجفان
عرض البوم صور ساحرة الاجفان رد مع اقتباس
إضافة رد

الكلمات الدلالية (Tags)
مترجم, الاولى, dragon, dvd, تحميل, تنصيب, how, to, train, فلم, your


الذين يشاهدون محتوى الموضوع الآن : 1 ( الأعضاء 0 والزوار 1)
 
أدوات الموضوع إبحث في الموضوع
إبحث في الموضوع:

البحث المتقدم
انواع عرض الموضوع

تعليمات المشاركة
لا تستطيع إضافة مواضيع جديدة
لا تستطيع الرد على المواضيع
لا تستطيع إرفاق ملفات
لا تستطيع تعديل مشاركاتك

BB code is متاحة
كود [IMG] متاحة
كود HTML معطلة


المواضيع المتشابهه
الموضوع كاتب الموضوع المنتدى مشاركات آخر مشاركة
مسلسل How i met your mother الموسم التاسع الحلقة الاولى والثانية مترجمة-How i met your mother Season 9 Episode 1+2 مترجم اون لاين angle girl قسم مسلسلات اجنبية 2017- مسلسلات دراما الاجنبية 2017 - مسلسلات اكشن الأجنبية 2017 1 11-19-2013 01:06 PM
تحميل فيلم القتال Rise of the Sea Dragon 2013 مترجم بنسخة dvd ĄĐM̲ήt»7̴βk قسم افلام اجنبى - تحميل افلام اجنبى 2017 - احدث الافلام الاجنبى - افلام اجنبى 2017 3 10-24-2013 02:10 PM


الساعة الآن 03:57 PM



SEO by FiraSEO v3.2 .
Powered by vBulletin® Copyright ©2000 - 2017, Jelsoft Enterprises Ltd. TranZ By Almuhajir

هذا الموقع يستعمل منتجات MARCO1

منتدى روعه احساس -